Ittefaq 2017 Hindi Movies HD TS x264 Clean Audio AAC New Source w...

  • Category Movies
  • Type h.264/x264
  • Language Hindi
  • Total size 714.5 MB
  • Uploaded By nehalpuja
  • Downloads 21651
  • Last checked 2 weeks ago
  • Date uploaded 2 weeks ago
  • Seeders 243
  • Leechers 109

Ittefaq: It happened one night

ThrillerMystery

Remake of Ittefaq (1969). A murder mystery in which the two primary suspects (whose spouses have both been murdered) give vastly different accounts during interrogation.

Infohash : 0C6C2FCF1F0CDC63277E280D08996B014F4C974F

Ittefaq 2017 Hindi Movies HD TS x264 Clean Audio AAC New Source with Sample ☻rDX☻
===============================================================================================

SCREEN SHOTS:



or

http://postimage.co.nr/2017/11/banking/1.html

File size : 707 MiB
Duration : 1 h 37 min
Overall bit rate : 1 014 kb/s
Movie name : Ittefaq 2017 Hindi Movies HD TS x264 Clean Audio AAC New Source ☻rDX☻

Video
ID : 1
Format : AVC
Format/Info : Advanced Video Codec
Format profile : [email protected]
Format settings, CABAC : Yes
Format settings, ReFrames : 4 frames
Codec ID : V_MPEG4/ISO/AVC
Duration : 1 h 37 min
Bit rate : 948 kb/s
Width : 640 pixels
Height : 272 pixels
Display aspect ratio : 2.35:1
Frame rate mode : Constant
Frame rate : 29.970 (30000/1001) FPS
Color space : YUV
Chroma subsampling : 4:2:0
Bit depth : 8 bits
Scan type : Progressive
Bits/(Pixel*Frame) : 0.182
Stream size : 649 MiB (92%)
Title : ☻rDX☻
Writing library : x264

Audio
ID : 2
Format : MPEG Audio
Format version : Version 2
Format profile : Layer 3
Mode : Joint stereo
Mode extension : MS Stereo
Codec ID : A_MPEG/L3
Codec ID/Hint : MP3
Duration : 1 h 37 min
Bit rate mode : Constant
Bit rate : 64.0 kb/s
Channel(s) : 2 channels
Sampling rate : 24.0 kHz
Compression mode : Lossy
Stream size : 44.6 MiB (6%)
Title : ☻rDX☻
Writing library : LAME3.99r
Language : Hindi
Default : Yes
Forced : Yes



IMDB : http://www.imdb.com/title/tt6692354

Files:

Ittefaq 2017 Hindi Movies HD TS x264 Clean Audio AAC New Source with Sample ☻rDX☻
  • Sample ~ Ittefaq 2017 Hindi Movies HD TS x264 Clean Audio AAC New Source ☻rDX☻.mkv (7.2 MB)
  • Ittefaq 2017 Hindi Movies HD TS x264 Clean Audio AAC New Source ☻rDX☻.mkv (707.3 MB)

Comments

Code:

  • udp://tracker.coppersurfer.tk:6969/announce
  • udp://tracker.openbittorrent.com:80/announce
  • udp://glotorrents.pw:6969/announce
  • udp://tracker.publicbt.com:80/announce
  • http://retracker.krs-ix.ru/announce
  • udp://tracker.pomf.se:80/announce
  • udp://explodie.org:6969/announce
  • http://mgtracker.org:2710/announce
  • http://tracker.aletorrenty.pl:2710/announce
  • http://tracker.btcake.com/announce
  • udp://tracker.openbittorrent.com:80/announce
  • udp://tracker.leechers-paradise.org:6969/announce
  • udp://coppersurfer.tk:6969/announce