The Terminator 1984 1080p Bluray x265 10Bit AAC 5.1 - GetSchwifty

  • Category Movies
  • Type HEVC/x265
  • Language English
  • Total size 3.0 GB
  • Uploaded By GetSchwifty
  • Downloads 412
  • Last checked 1 week ago
  • Date uploaded 2 weeks ago
  • Seeders 23
  • Leechers 15

The Terminator

ActionScience FictionThriller

In the post-apocalyptic future, reigning tyrannical supercomputers teleport a cyborg assassin known as the "Terminator" back to 1984 to kill Sarah Connor, whose unborn son is destined to lead insurgents against 21st century mechanical hegemony. Meanwhile, the human-resistance movement dispatches a lone warrior to safeguard Sarah. Can he stop the virtually indestructible killing machine?

Infohash : C5B0BD37FB6FD037D2B80774F047126A3263B2EF

Source File:

The Terminator 1984 1080p CEE BluRay AVC DTS-HD 5.1-CHDBits



Media Information:


Code:

General
Unique ID : 191740153517063839089209235152075237641 (0x903FCF7121886E1DA62FD288591C2909)
Complete name : G:\Seeding\The Terminator 1984 1080p Bluray x265 10Bit AAC 5.1 - GetSchwifty\The Terminator 1984 1080p Bluray x265 10Bit AAC 5.1 - GetSchwifty.mkv
Format : Matroska
Format version : Version 4 / Version 2
File size : 2.98 GiB
Duration : 1 h 47 min
Overall bit rate : 3 989 kb/s
Movie name : The Terminator
Encoded date : UTC 2017-11-04 22:07:06
Writing application : mkvmerge v14.0.0 ('Flow') 64bit
Writing library : libebml v1.3.4 + libmatroska v1.4.5

Video
ID : 1
Format : HEVC
Format/Info : High Efficiency Video Coding
Format profile : Main [email protected]@Main
Codec ID : V_MPEGH/ISO/HEVC
Duration : 1 h 47 min
Bit rate : 3 602 kb/s
Width : 1 920 pixels
Height : 1 040 pixels
Display aspect ratio : 1.85:1
Frame rate mode : Constant
Frame rate : 23.976 (24000/1001) FPS
Color space : YUV
Chroma subsampling : 4:2:0
Bit depth : 10 bits
Bits/(Pixel*Frame) : 0.075
Stream size : 2.69 GiB (90%)
Writing library : x265 2.5+17-f8ae7afc1f61:[Windows][GCC 6.2.1][64 bit] 10bit
Encoding settings : cpuid=1050111 / frame-threads=3 / numa-pools=8 / wpp / no-pmode / no-pme / no-psnr / no-ssim / log-level=2 / input-csp=1 / input-res=1920x1040 / interlace=0 / total-frames=154009 / level-idc=0 / high-tier=1 / uhd-bd=0 / ref=5 / no-allow-non-conformance / no-repeat-headers / annexb / no-aud / no-hrd / info / hash=0 / no-temporal-layers / open-gop / min-keyint=23 / keyint=250 / bframes=8 / b-adapt=2 / b-pyramid / bframe-bias=0 / rc-lookahead=80 / lookahead-slices=6 / scenecut=40 / no-intra-refresh / ctu=64 / min-cu-size=8 / no-rect / no-amp / max-tu-size=32 / tu-inter-depth=1 / tu-intra-depth=1 / limit-tu=0 / rdoq-level=0 / dynamic-rd=0.00 / no-ssim-rd / signhide / no-tskip / nr-intra=0 / nr-inter=0 / no-constrained-intra / strong-intra-smoothing / max-merge=3 / limit-refs=3 / limit-modes / me=3 / subme=5 / merange=57 / temporal-mvp / weightp / weightb / no-analyze-src-pics / deblock=0:0 / sao / no-sao-non-deblock / rd=3 / no-early-skip / rskip / no-fast-intra / no-tskip-fast / no-cu-lossless / no-b-intra / no-splitrd-skip / rdpenalty=0 / psy-rd=0.30 / psy-rdoq=0.00 / no-rd-refine / analysis-reuse-mode=0 / no-lossless / cbqpoffs=0 / crqpoffs=0 / rc=abr / bitrate=3602 / qcomp=0.60 / qpstep=4 / stats-write=0 / stats-read=2 / cplxblur=20.0 / qblur=0.5 / ipratio=1.40 / pbratio=1.30 / aq-mode=3 / aq-strength=1.00 / cutree / zone-count=0 / no-strict-cbr / qg-size=32 / no-rc-grain / qpmax=69 / qpmin=0 / no-const-vbv / sar=0 / overscan=0 / videoformat=5 / range=0 / colorprim=2 / transfer=2 / colormatrix=2 / chromaloc=0 / display-window=0 / max-cll=0,0 / min-luma=0 / max-luma=1023 / log2-max-poc-lsb=8 / vui-timing-info / vui-hrd-info / slices=1 / opt-qp-pps / opt-ref-list-length-pps / no-multi-pass-opt-rps / scenecut-bias=0.05 / no-opt-cu-delta-qp / aq-motion / no-hdr / no-hdr-opt / no-dhdr10-opt / analysis-reuse-level=5 / scale-factor=0 / refine-intra=0 / refine-inter=0 / refine-mv=0 / no-limit-sao / ctu-info=0
Default : Yes
Forced : No

Audio
ID : 2
Format : AAC
Format/Info : Advanced Audio Codec
Format profile : LC
Codec ID : A_AAC
Duration : 1 h 47 min
Bit rate : 288 kb/s
Channel(s) : 6 channels
Channel positions : Front: L C R, Side: L R, LFE
Sampling rate : 48.0 kHz
Frame rate : 46.875 FPS (1024 SPF)
Compression mode : Lossy
Delay relative to video : 9 ms
Stream size : 225 MiB (7%)
Title : English AAC VBR 5.1
Default : No
Forced : No

Text #1
ID : 3
Format : PGS
Muxing mode : zlib
Codec ID : S_HDMV/PGS
Codec ID/Info : Picture based subtitle format used on BDs/HD-DVDs
Duration : 1 h 43 min
Bit rate : 17.6 kb/s
Count of elements : 1132
Stream size : 13.0 MiB (0%)
Language : English
Default : No
Forced : No

Text #2
ID : 4
Format : PGS
Muxing mode : zlib
Codec ID : S_HDMV/PGS
Codec ID/Info : Picture based subtitle format used on BDs/HD-DVDs
Duration : 1 h 46 min
Bit rate : 17.0 kb/s
Count of elements : 1124
Stream size : 12.9 MiB (0%)
Language : Italian
Default : No
Forced : No

Text #3
ID : 5
Format : PGS
Muxing mode : zlib
Codec ID : S_HDMV/PGS
Codec ID/Info : Picture based subtitle format used on BDs/HD-DVDs
Duration : 1 h 46 min
Bit rate : 16.7 kb/s
Count of elements : 1188
Stream size : 12.7 MiB (0%)
Language : Russian
Default : No
Forced : No

Text #4
ID : 6
Format : PGS
Muxing mode : zlib
Codec ID : S_HDMV/PGS
Codec ID/Info : Picture based subtitle format used on BDs/HD-DVDs
Duration : 1 h 46 min
Bit rate : 19.4 kb/s
Count of elements : 1136
Stream size : 14.7 MiB (0%)
Language : Spanish
Default : No
Forced : No

Text #5
ID : 7
Format : PGS
Muxing mode : zlib
Codec ID : S_HDMV/PGS
Codec ID/Info : Picture based subtitle format used on BDs/HD-DVDs
Duration : 1 h 46 min
Bit rate : 16.2 kb/s
Count of elements : 1126
Stream size : 12.3 MiB (0%)
Language : Bulgarian
Default : No
Forced : No

Text #6
ID : 8
Format : PGS
Muxing mode : zlib
Codec ID : S_HDMV/PGS
Codec ID/Info : Picture based subtitle format used on BDs/HD-DVDs
Duration : 1 h 46 min
Bit rate : 15.8 kb/s
Count of elements : 1190
Stream size : 12.0 MiB (0%)
Language : Chinese
Default : No
Forced : No

Text #7
ID : 9
Format : PGS
Muxing mode : zlib
Codec ID : S_HDMV/PGS
Codec ID/Info : Picture based subtitle format used on BDs/HD-DVDs
Duration : 1 h 45 min
Bit rate : 16.5 kb/s
Count of elements : 1104
Stream size : 12.4 MiB (0%)
Language : Croatian
Default : No
Forced : No

Text #8
ID : 10
Format : PGS
Muxing mode : zlib
Codec ID : S_HDMV/PGS
Codec ID/Info : Picture based subtitle format used on BDs/HD-DVDs
Duration : 1 h 46 min
Bit rate : 17.8 kb/s
Count of elements : 1188
Stream size : 13.5 MiB (0%)
Language : Czech
Default : No
Forced : No

Text #9
ID : 11
Format : PGS
Muxing mode : zlib
Codec ID : S_HDMV/PGS
Codec ID/Info : Picture based subtitle format used on BDs/HD-DVDs
Duration : 1 h 46 min
Bit rate : 19.2 kb/s
Count of elements : 1142
Stream size : 14.6 MiB (0%)
Language : Greek
Default : No
Forced : No

Text #10
ID : 12
Format : PGS
Muxing mode : zlib
Codec ID : S_HDMV/PGS
Codec ID/Info : Picture based subtitle format used on BDs/HD-DVDs
Duration : 1 h 46 min
Bit rate : 20.0 kb/s
Count of elements : 1136
Stream size : 15.2 MiB (0%)
Language : Hungarian
Default : No
Forced : No

Text #11
ID : 13
Format : PGS
Muxing mode : zlib
Codec ID : S_HDMV/PGS
Codec ID/Info : Picture based subtitle format used on BDs/HD-DVDs
Duration : 1 h 45 min
Bit rate : 18.5 kb/s
Count of elements : 1130
Stream size : 14.0 MiB (0%)
Language : Polish
Default : No
Forced : No

Text #12
ID : 14
Format : PGS
Muxing mode : zlib
Codec ID : S_HDMV/PGS
Codec ID/Info : Picture based subtitle format used on BDs/HD-DVDs
Duration : 1 h 46 min
Bit rate : 17.5 kb/s
Count of elements : 1136
Stream size : 13.3 MiB (0%)
Language : Portuguese
Default : No
Forced : No

Text #13
ID : 15
Format : PGS
Muxing mode : zlib
Codec ID : S_HDMV/PGS
Codec ID/Info : Picture based subtitle format used on BDs/HD-DVDs
Duration : 1 h 43 min
Bit rate : 16.4 kb/s
Count of elements : 1060
Stream size : 12.2 MiB (0%)
Language : Romanian
Default : No
Forced : No

Text #14
ID : 16
Format : PGS
Muxing mode : zlib
Codec ID : S_HDMV/PGS
Codec ID/Info : Picture based subtitle format used on BDs/HD-DVDs
Duration : 1 h 45 min
Bit rate : 15.9 kb/s
Count of elements : 1120
Stream size : 12.0 MiB (0%)
Language : Slovenian
Default : No
Forced : No

Text #15
ID : 17
Format : PGS
Muxing mode : zlib
Codec ID : S_HDMV/PGS
Codec ID/Info : Picture based subtitle format used on BDs/HD-DVDs
Duration : 1 h 46 min
Bit rate : 18.1 kb/s
Count of elements : 1116
Stream size : 13.7 MiB (0%)
Language : Turkish
Default : No
Forced : No

Text #16
ID : 18
Format : PGS
Muxing mode : zlib
Codec ID : S_HDMV/PGS
Codec ID/Info : Picture based subtitle format used on BDs/HD-DVDs
Duration : 1 h 46 min
Bit rate : 211 b/s
Count of elements : 16
Stream size : 165 KiB (0%)
Language : Italian
Default : No
Forced : No

Text #17
ID : 19
Format : PGS
Muxing mode : zlib
Codec ID : S_HDMV/PGS
Codec ID/Info : Picture based subtitle format used on BDs/HD-DVDs
Duration : 1 h 37 min
Bit rate : 310 b/s
Count of elements : 28
Stream size : 220 KiB (0%)
Language : Russian
Default : No
Forced : No

Text #18
ID : 20
Format : PGS
Muxing mode : zlib
Codec ID : S_HDMV/PGS
Codec ID/Info : Picture based subtitle format used on BDs/HD-DVDs
Duration : 32 min 38 s
Bit rate : 683 b/s
Count of elements : 12
Stream size : 163 KiB (0%)
Language : Spanish
Default : No
Forced : No

Text #19
ID : 21
Format : PGS
Muxing mode : zlib
Codec ID : S_HDMV/PGS
Codec ID/Info : Picture based subtitle format used on BDs/HD-DVDs
Duration : 1 h 37 min
Bit rate : 422 b/s
Count of elements : 38
Stream size : 300 KiB (0%)
Language : Czech
Default : No
Forced : No

Text #20
ID : 22
Format : PGS
Muxing mode : zlib
Codec ID : S_HDMV/PGS
Codec ID/Info : Picture based subtitle format used on BDs/HD-DVDs
Duration : 1 h 46 min
Bit rate : 155 b/s
Count of elements : 12
Stream size : 121 KiB (0%)
Language : Hungarian
Default : No
Forced : No

Text #21
ID : 23
Format : PGS
Muxing mode : zlib
Codec ID : S_HDMV/PGS
Codec ID/Info : Picture based subtitle format used on BDs/HD-DVDs
Duration : 32 min 38 s
Bit rate : 477 b/s
Count of elements : 12
Stream size : 114 KiB (0%)
Language : Turkish
Default : No
Forced : No

Menu
00:00:00.000 : en:2029 a.D./Main Title
00:03:32.254 : en:The Arrival
00:05:18.151 : en:New Wardrobe
00:06:31.016 : en:Second Visitor
00:11:38.323 : en:Hard-Working Girl
00:13:45.324 : en:Gun Men
00:15:11.828 : en:"Sarah Connor?"
00:20:44.618 : en:Phone Book Rampage
00:22:49.618 : en:Last One Left
00:29:49.788 : en:Uninvited Guest
00:33:15.035 : en:The Last Day of Disco
00:38:47.116 : en:Running Commentary
00:41:25.191 : en:The Possible Future
00:47:46.489 : en:"Drive!"
00:50:39.995 : en:Safety in Uniforms
00:54:41.570 : en:Self-Service
00:59:04.916 : en:I'll Be Back!"
01:03:53.538 : en:Mother of the Future
01:09:37.548 : en:The War to Come
01:14:08.986 : en:Answering Machine
01:15:00.079 : en:Not Mom
01:17:18.801 : en:Recipe for Disaster
01:18:30.372 : en:Present for the Future
01:23:00.893 : en:Hot Pursuit
01:26:24.721 : en:Run Over By a Truck
01:30:22.584 : en:Hunk O' Burning Steel
01:32:19.367 : en:Factory Foolery
01:35:52.121 : en:Head Without Heels
01:39:53.863 : en:Survivor
01:40:18.721 : en:Tapes for John
01:40:49.335 : en:A Storm Is Coming
01:43:12.895 : en:End Credits

Files:

  • The Terminator 1984 1080p Bluray x265 10Bit AAC 5.1 - GetSchwifty.mkv (3.0 GB)

Comments

Code:

  • udp://tracker.coppersurfer.tk:6969/announce
  • udp://tracker.opentrackr.org:1337/announce
  • udp://tracker.torrent.eu.org:451/announce
  • http://tracker.tfile.me:80/announce
  • http://t.nyaatracker.com:80/announce
  • http://retracker.mgts.by:80/announce
  • http://tracker.yoshi210.com:6969/announce