A Very Sordid Wedding 2017 (1080p Bluray x265 HEVC 10bit AAC 5.1 ...

  • Category Movies
  • Type HEVC/x265
  • Language English
  • Total size 4.5 GB
  • Uploaded By UTRplus
  • Downloads 165
  • Last checked 1 week ago
  • Date uploaded 2 weeks ago
  • Seeders 11
  • Leechers 7

A Very Sordid Wedding

Comedy

Del Shores' follow-up to "Sordid Lives" revisits Winters, Texas for a showdown between the gradually liberalizing locals and the new fundamentalist preacher in the wake of the Supreme Court's marriage equality decision.

Infohash : 5F544E755F4143B7DA2AA518F50D757DA6CA5284



A Very Sordid Wedding 2017 in 1080p, encoded with x265 in HEVC and AAC 5.1 English, with subtitle!
Encoded using the time consuming 2 pass, 10 bit color at 4750 kbps, from a Blu-ray source, for the highest quality possible.



Media Information

Code:

General
Format : Matroska
Format version : Version 4 / Version 2
File size : 3.92 GiB
Duration : 1 h 48 min
Overall bit rate : 5 171 kb/s
Movie name : A Very Sordid Wedding
Encoded date : UTC 2017-10-24 05:15:21
Writing application : mkvmerge v14.0.0 ('Flow') 64bit
Writing library : libebml v1.3.4 + libmatroska v1.4.5

Video
ID : 1
Format : HEVC
Format/Info : High Efficiency Video Coding
Format profile : Main [email protected]@Main
Codec ID : V_MPEGH/ISO/HEVC
Duration : 1 h 48 min
Bit rate : 4 751 kb/s
Width : 1 920 pixels
Height : 1 080 pixels
Display aspect ratio : 16:9
Frame rate mode : Constant
Frame rate : 23.976 (24000/1001) FPS
Color space : YUV
Chroma subsampling : 4:2:0
Bit depth : 10 bits
Bits/(Pixel*Frame) : 0.096
Stream size : 3.60 GiB (92%)
Writing library : x265 2.5+22-8db95a1da9f8:[Windows][GCC 7.1.0][64 bit] 10bit
Encoding settings : cpuid=1173503 / frame-threads=3 / numa-pools=8 / wpp / no-pmode / no-pme / no-psnr / no-ssim / log-level=2 / input-csp=1 / input-res=1920x1080 / interlace=0 / total-frames=156016 / level-idc=0 / high-tier=1 / uhd-bd=0 / ref=4 / no-allow-non-conformance / no-repeat-headers / annexb / no-aud / no-hrd / info / hash=0 / no-temporal-layers / open-gop / min-keyint=23 / keyint=250 / bframes=4 / b-adapt=2 / b-pyramid / bframe-bias=0 / rc-lookahead=25 / lookahead-slices=4 / scenecut=40 / no-intra-refresh / ctu=64 / min-cu-size=8 / rect / no-amp / max-tu-size=32 / tu-inter-depth=1 / tu-intra-depth=1 / limit-tu=0 / rdoq-level=2 / dynamic-rd=0.00 / no-ssim-rd / signhide / no-tskip / nr-intra=0 / nr-inter=0 / no-constrained-intra / strong-intra-smoothing / max-merge=3 / limit-refs=3 / limit-modes / me=3 / subme=3 / merange=57 / temporal-mvp / weightp / no-weightb / no-analyze-src-pics / deblock=0:0 / sao / no-sao-non-deblock / rd=4 / no-early-skip / rskip / no-fast-intra / no-tskip-fast / no-cu-lossless / no-b-intra / no-splitrd-skip / rdpenalty=0 / psy-rd=2.00 / psy-rdoq=1.00 / no-rd-refine / analysis-reuse-mode=0 / no-lossless / cbqpoffs=0 / crqpoffs=0 / rc=abr / bitrate=4750 / qcomp=0.60 / qpstep=4 / stats-write=0 / stats-read=2 / cplxblur=20.0 / qblur=0.5 / ipratio=1.40 / pbratio=1.30 / aq-mode=2 / aq-strength=1.00 / cutree / zone-count=0 / no-strict-cbr / qg-size=32 / no-rc-grain / qpmax=69 / qpmin=0 / no-const-vbv / sar=0 / overscan=0 / videoformat=5 / range=0 / colorprim=2 / transfer=2 / colormatrix=2 / chromaloc=0 / display-window=0 / max-cll=0,0 / min-luma=0 / max-luma=1023 / log2-max-poc-lsb=8 / vui-timing-info / vui-hrd-info / slices=1 / opt-qp-pps / opt-ref-list-length-pps / no-multi-pass-opt-rps / scenecut-bias=0.05 / no-opt-cu-delta-qp / no-aq-motion / no-hdr / no-hdr-opt / no-dhdr10-opt / analysis-reuse-level=5 / scale-factor=0 / refine-intra=0 / refine-inter=0 / refine-mv=0 / no-limit-sao / ctu-info=0
Default : Yes
Forced : No

Audio
ID : 2
Format : AAC
Format/Info : Advanced Audio Codec
Format profile : LC
Codec ID : A_AAC
Duration : 1 h 48 min
Bit rate : 410 kb/s
Channel(s) : 6 channels
Channel positions : Front: L C R, Side: L R, LFE
Sampling rate : 48.0 kHz
Frame rate : 46.875 FPS (1024 spf)
Compression mode : Lossy
Delay relative to video : 20 ms
Stream size : 318 MiB (8%)
Language : English
Default : Yes
Forced : No

Text
ID : 3
Format : VobSub
Muxing mode : zlib
Codec ID : S_VOBSUB
Codec ID/Info : Picture based subtitle format used on DVDs
Duration : 1 h 48 min
Bit rate : 12.8 kb/s
Count of elements : 2165
Stream size : 9.91 MiB (0%)
Language : English
Default : No
Forced : No

Menu
00:00:00.000 : en:Chapter 01
00:11:10.628 : en:Chapter 02
00:22:23.050 : en:Chapter 03
00:35:19.784 : en:Chapter 04
00:46:09.391 : en:Chapter 05
00:57:53.303 : en:Chapter 06
01:11:19.441 : en:Chapter 07
01:23:32.007 : en:Chapter 08
01:38:02.376 : en:Chapter 09
01:48:26.041 : en:Chapter 10


Source Information

Code:

Release : A.Very.Sordid.Wedding.2017.1080p.BluRay.AVC.DTS-HD.MA.5.1-FGT
Complete name : A_Very_Sordid_Wedding_t04.mkv
File size : 27.6 GiB
Duration : 1 h 48 min
Overall bit rate mode : Variable
Overall bit rate : 36.5 Mb/s


Files:

A Very Sordid Wedding 2017 (1080p Bluray x265 HEVC 10bit AAC 5.1 Tigole)
  • A Very Sordid Wedding 2017 (1080p x265 10bit Tigole).mkv (3.9 GB)
  • Featurettes
    • Behind the Scenes.mkv (37.3 MB)
    • Blake McIver - This Is Who We Are.mkv (46.0 MB)
    • Bloopers.mkv (114.7 MB)
    • Cast Interviews - Characters.mkv (62.1 MB)
    • Cast Interviews - Del Shores.mkv (62.9 MB)
    • Cast Interviews - Sordid Lives.mkv (73.0 MB)
    • Cast Interviews - Wedding.mkv (61.9 MB)
    • Cast Interviews - Whoopi Goldberg.mkv (41.9 MB)
    • Levi Kreis - His Eye Is On The Sparrow.mkv (44.1 MB)
    • Trailer.mkv (25.0 MB)

There are currently no comments. Feel free to leave one :)

Code:

  • udp://tracker.torrent.eu.org:451/announce
  • udp://tracker.opentrackr.org:1337/announce
  • udp://tracker.coppersurfer.tk:6969/announce