Terminator 2 Judgment Day 1991 1080p Bluray x265 10Bit AAC 5.1 - ...

  • Category Movies
  • Type HEVC/x265
  • Language English
  • Total size 3.8 GB
  • Uploaded By GetSchwifty
  • Downloads 602
  • Last checked 1 week ago
  • Date uploaded 1 week ago
  • Seeders 50
  • Leechers 15

Terminator 2: Judgment Day

ActionScience FictionThriller

Nearly 10 years have passed since Sarah Connor was targeted for termination by a cyborg from the future. Now her son, John, the future leader of the resistance, is the target for a newer, more deadly terminator. Once again, the resistance has managed to send a protector back to attempt to save John and his mother Sarah.

Infohash : 608333C93BCFEDBD6CEEE0520DE8978DC6381E70

Source File:

Terminator 2: Judgment Day 1991 1080p Director's Cut BluRay REMUX AVC DTS-HD MA 5.1 - Kanibus [PrivateHD]



Media Information:


Code:

General
Unique ID : 191060878141339960614909546274460652973 (0x8FBCFC9486C0F6DD9A56315250D9D5AD)
Complete name : G:\Seeding\Terminator 2 Judgment Day 1991 1080p Bluray x265 10Bit AAC 5.1 - GetSchwifty\Terminator 2 Judgment Day 1991 1080p Bluray x265 10Bit AAC 5.1 - GetSchwifty.mkv
Format : Matroska
Format version : Version 4 / Version 2
File size : 3.79 GiB
Duration : 2 h 33 min
Overall bit rate : 3 538 kb/s
Movie name : Terminator 2: Judgment Day
Encoded date : UTC 2017-11-08 18:08:04
Writing application : mkvmerge v14.0.0 ('Flow') 64bit
Writing library : libebml v1.3.4 + libmatroska v1.4.5

Video
ID : 1
Format : HEVC
Format/Info : High Efficiency Video Coding
Format profile : Main [email protected]@Main
Codec ID : V_MPEGH/ISO/HEVC
Duration : 2 h 33 min
Bit rate : 3 159 kb/s
Width : 1 904 pixels
Height : 800 pixels
Display aspect ratio : 2.40:1
Frame rate mode : Constant
Frame rate : 23.976 (24000/1001) FPS
Color space : YUV
Chroma subsampling : 4:2:0
Bit depth : 10 bits
Bits/(Pixel*Frame) : 0.087
Stream size : 3.39 GiB (89%)
Writing library : x265 2.5+17-f8ae7afc1f61:[Windows][GCC 6.2.1][64 bit] 10bit
Encoding settings : cpuid=1050111 / frame-threads=3 / numa-pools=8 / wpp / no-pmode / no-pme / no-psnr / no-ssim / log-level=2 / input-csp=1 / input-res=1904x800 / interlace=0 / total-frames=220744 / level-idc=0 / high-tier=1 / uhd-bd=0 / ref=5 / no-allow-non-conformance / no-repeat-headers / annexb / no-aud / no-hrd / info / hash=0 / no-temporal-layers / open-gop / min-keyint=23 / keyint=250 / bframes=8 / b-adapt=2 / b-pyramid / bframe-bias=0 / rc-lookahead=80 / lookahead-slices=5 / scenecut=40 / no-intra-refresh / ctu=64 / min-cu-size=8 / no-rect / no-amp / max-tu-size=32 / tu-inter-depth=1 / tu-intra-depth=1 / limit-tu=0 / rdoq-level=0 / dynamic-rd=0.00 / no-ssim-rd / signhide / no-tskip / nr-intra=0 / nr-inter=0 / no-constrained-intra / strong-intra-smoothing / max-merge=3 / limit-refs=3 / limit-modes / me=3 / subme=5 / merange=57 / temporal-mvp / weightp / weightb / no-analyze-src-pics / deblock=0:0 / sao / no-sao-non-deblock / rd=3 / no-early-skip / rskip / no-fast-intra / no-tskip-fast / no-cu-lossless / no-b-intra / no-splitrd-skip / rdpenalty=0 / psy-rd=0.30 / psy-rdoq=0.00 / no-rd-refine / analysis-reuse-mode=0 / no-lossless / cbqpoffs=0 / crqpoffs=0 / rc=abr / bitrate=3159 / qcomp=0.60 / qpstep=4 / stats-write=0 / stats-read=2 / cplxblur=20.0 / qblur=0.5 / ipratio=1.40 / pbratio=1.30 / aq-mode=3 / aq-strength=1.00 / cutree / zone-count=0 / no-strict-cbr / qg-size=32 / no-rc-grain / qpmax=69 / qpmin=0 / no-const-vbv / sar=0 / overscan=0 / videoformat=5 / range=0 / colorprim=2 / transfer=2 / colormatrix=2 / chromaloc=0 / display-window=0 / max-cll=0,0 / min-luma=0 / max-luma=1023 / log2-max-poc-lsb=8 / vui-timing-info / vui-hrd-info / slices=1 / opt-qp-pps / opt-ref-list-length-pps / no-multi-pass-opt-rps / scenecut-bias=0.05 / no-opt-cu-delta-qp / aq-motion / no-hdr / no-hdr-opt / no-dhdr10-opt / analysis-reuse-level=5 / scale-factor=0 / refine-intra=0 / refine-inter=0 / refine-mv=0 / no-limit-sao / ctu-info=0
Default : Yes
Forced : No

Audio
ID : 2
Format : AAC
Format/Info : Advanced Audio Codec
Format profile : LC
Codec ID : A_AAC
Duration : 2 h 33 min
Bit rate : 364 kb/s
Channel(s) : 6 channels
Channel positions : Front: L C R, Side: L R, LFE
Sampling rate : 48.0 kHz
Frame rate : 46.875 FPS (1024 SPF)
Compression mode : Lossy
Delay relative to video : 9 ms
Stream size : 399 MiB (10%)
Title : English AAC VBR 5.1
Language : English
Default : Yes
Forced : No

Text #1
ID : 3
Format : PGS
Muxing mode : zlib
Codec ID : S_HDMV/PGS
Codec ID/Info : Picture based subtitle format used on BDs/HD-DVDs
Duration : 2 h 31 min
Bit rate : 19.6 kb/s
Count of elements : 2128
Stream size : 21.2 MiB (1%)
Language : English
Default : No
Forced : No

Text #2
ID : 4
Format : PGS
Muxing mode : zlib
Codec ID : S_HDMV/PGS
Codec ID/Info : Picture based subtitle format used on BDs/HD-DVDs
Duration : 2 h 31 min
Bit rate : 20.6 kb/s
Count of elements : 2179
Stream size : 22.3 MiB (1%)
Language : Spanish
Default : No
Forced : No

Text #3
ID : 5
Format : PGS
Muxing mode : zlib
Codec ID : S_HDMV/PGS
Codec ID/Info : Picture based subtitle format used on BDs/HD-DVDs
Duration : 2 h 32 min
Bit rate : 25.2 kb/s
Count of elements : 2714
Stream size : 27.5 MiB (1%)
Title : SDH
Language : English
Default : No
Forced : No

Menu
00:00:00.000 : en:Prologue
00:00:49.758 : en:Future War
00:03:36.674 : en:Main Titles
00:05:34.834 : en:A Terminator Arrives
00:06:46.406 : en:Biker Bar
00:09:09.215 : en:Bad to the Bone
00:10:31.547 : en:T-1000 Arrives
00:12:29.498 : en:Meet John Connor
00:13:37.691 : en:Sarah Conner
00:15:29.720 : en:Ain't No Trouble
00:16:29.905 : en:T-1000 Visits Voights
00:17:39.308 : en:Easy Money
00:19:10.274 : en:Not Much Time Time Left in the World
00:22:27.220 : en:Sanity Review
00:25:54.469 : en:Cyberdyne Systems
00:27:27.979 : en:Model Citizen
00:28:51.187 : en:Target Acquired
00:29:44.657 : en:The Galleria
00:31:21.045 : en:Zeroed in the Corridor
00:33:57.577 : en:In the Streets
00:35:08.231 : en:Canal Chase
00:38:48.326 : en:Time Out
00:41:31.405 : en:Never This Nice
00:44:14.151 : en:T-1000's Search
00:44:44.014 : en:Photos
00:45:59.381 : en:Mission Parameters
00:49:45.941 : en:Pescadero State Hospital
00:52:57.424 : en:Lewis the Guard
00:54:41.987 : en:Sarah Breaks Out
00:56:19.542 : en:215 Bones
00:57:03.002 : en:I Swear
00:58:12.363 : en:A Syringe-Point
01:00:21.909 : en:"Come with Me If You Want to Live"
01:01:49.372 : en:Escape From Pescadero
01:06:22.603 : en:Security Car
01:07:57.865 : en:Nice Bike
01:08:38.781 : en:Night Repairs
01:10:01.655 : en:Resetting the Switch
01:13:27.903 : en:Heading South
01:14:06.358 : en:No Problemo
01:14:56.200 : en:Smile?
01:16:24.204 : en:Detailed Files
01:18:46.513 : en:Meet the Pilot
01:21:07.028 : en:Salceda's Camp
01:23:36.594 : en:Weapons Cache
01:26:23.136 : en:Fathers and Sons
01:30:43.396 : en:Nuclear Nightmare
01:33:00.366 : en:Sarah's Decision
01:33:30.646 : en:No Fate
01:35:13.749 : en:Sarah's Solution
01:41:33.087 : en:Changing the Way It Goes
01:44:22.130 : en:Target: Cyberdyne
01:46:23.627 : en:All the Way
01:48:23.747 : en:T-1000 at Dyson's
01:49:03.411 : en:A Lot of Years
01:49:54.004 : en:Company
01:52:01.965 : en:Terminator Serves Notice
01:53:51.241 : en:In the Vault
01:54:23.857 : en:S.W.A.T. Offensive
01:56:44.998 : en:Death of Dyson and Cyberdyne
01:58:16.005 : en:"I'll Be Back"
01:59:56.439 : en:Borrowing the S.W.A.T. Van
02:01:09.053 : en:T-1000 Acquires a Helicopter
02:02:07.611 : en:Freeway Chase
02:04:46.604 : en:Tanker Chase
02:08:51.390 : en:Fire and Ice
02:12:20.682 : en:Glitching
02:13:00.013 : en:Sticking Together
02:13:33.171 : en:Hand to Hand
02:14:42.908 : en:Deeper Into the Steel Mill
02:15:18.026 : en:Sarah's Stand
02:17:14.476 : en:Terminator Skewered
02:19:14.304 : en:Sarah and John
02:19:46.920 : en:Alternate Power
02:20:22.747 : en:Two Sarahs
02:21:53.421 : en:Terminated
02:24:06.638 : en:One More Chip
02:27:57.618 : en:The Unknown Future
02:28:40.828 : en:End Titles
02:32:41.443 : en:Restoration Credits

Files:

  • Terminator 2 Judgment Day 1991 1080p Bluray x265 10Bit AAC 5.1 - GetSchwifty.mkv (3.8 GB)

Comments

Code:

  • udp://tracker.coppersurfer.tk:6969/announce
  • udp://tracker.opentrackr.org:1337/announce
  • udp://tracker.torrent.eu.org:451/announce
  • http://tracker.tfile.me:80/announce
  • http://t.nyaatracker.com:80/announce
  • http://retracker.mgts.by:80/announce
  • http://tracker.yoshi210.com:6969/announce